2 States 2014 Hindi Movies SCamRip with Sample

seeders: 40
leechers: 6
Added on Apr 18, 2014 by teamrdx8413 in Movies > Bollywood
Torrent verified. Downloaded 14,806 times.

2 States 2014 Hindi Movies SCamRip with Sample (Size: 701.69 MB)
  2 States 2014 Hindi Movies SCamRip.mkv 686.68 MB
  Sample ~ 2 States 2014 Hindi Movies SCamRip with Sample.mkv 15.01 MB

Description

image

2 States 2014 Hindi Movies SCamRip with Sample ~ ☻rDX☻

Screen Shots

http://istoreimg.co.nr/2014/4/2States/1.html
http://istoreimg.co.nr/2014/4/2States/2.html
http://istoreimg.co.nr/2014/4/2States/3.html
http://istoreimg.co.nr/2014/4/2States/4.html
http://istoreimg.co.nr/2014/4/2States/5.html
http://istoreimg.co.nr/2014/4/2States/6.html
http://istoreimg.co.nr/2014/4/2States/7.html
http://istoreimg.co.nr/2014/4/2States/8.html
http://istoreimg.co.nr/2014/4/2States/9.html
http://istoreimg.co.nr/2014/4/2States/10.html


All rDX torrents are Seeding From the 1Gbps Seedbox 24X7

image

IMDB: http://www.imdb.com/title/tt2372678/

Format : Matroska
Format version : Version 4 / Version 2
File size : 687 MiB
Duration : 2h 11mn
Overall bit rate mode : Variable
Overall bit rate : 728 Kbps
Movie name : 2 States 2014 Hindi Movies SCamRip ~ rDX ~

Video
ID : 1
Format : MPEG Video
Format version : Version 2
Format profile : Main@Main
Format settings, BVOP : No
Format settings, Matrix : Default
Codec ID : V_MPEG2
Codec ID/Info : MPEG 1 or 2 Video
Duration : 2h 11mn
Bit rate mode : Variable
Bit rate : 585 Kbps
Maximum bit rate : 9 672 Kbps
Width : 352 pixels
Height : 288 pixels
Display aspect ratio : 4:3
Frame rate mode : Constant
Frame rate : 25.000 fps
Standard : PAL
Color space : YUV
Chroma subsampling : 4:2:0
Bit depth : 8 bits
Scan type : Progressive
Compression mode : Lossy
Bits/(Pixel*Frame) : 0.231
Stream size : 552 MiB (80%)
Title : ~ rDX ~
Default : Yes
Forced : No

Audio
ID : 2
Format : MPEG Audio
Format version : Version 1
Format profile : Layer 2
Codec ID : A_MPEG/L2
Codec ID/Hint : MP2
Duration : 2h 11mn
Bit rate mode : Constant
Bit rate : 128 Kbps
Channel(s) : 2 channels
Sampling rate : 48.0 KHz
Compression mode : Lossy
Stream size : 121 MiB (18%)
Title : ~ rDX ~
Default : Yes
Forced : No

Sharing Widget


Download torrent
701.69 MB
seeders:40
leechers:6
2 States 2014 Hindi Movies SCamRip with Sample

Trackers

tracker name Status checked seeders leechers downloads
udp://9.rarbg.com:2710/announce
outdated 08 Nov 2014 - - -
udp://tracker.istole.it:80/announce
outdated 08 Nov 2014 - - -
udp://open.demonii.com:1337/announce
outdated 08 Nov 2014 - - -
udp://tracker.publicbt.com:80/announce
outdated 08 Nov 2014 - - -
udp://tracker.openbittorrent.com:80/announce
outdated 02 Sep 2014 - - -
udp://11.rarbg.com:80/announce
private 02 Sep 2014 - - -
http://tracker.trackerfix.com/announce
deleted 08 Nov 2014 - - -
udp://tracker.ccc.de:80/announce
deleted 05 Jul 2014 - - -
udp://fr33dom.h33t.com:3310/announce
deleted 05 Jul 2014 - - -
udp://fr33domtracker.h33t.com:3310/announce
deleted 05 Jul 2014 - - -
µTorrent compatible trackers list

Locations

name
KickassTorrents
Torrent hash: 4E0A52C63A2E3B6758AA33571EF902064017FFC8

All Comments

audio
5/10
video
5/10
please, leave only comments related to that torrent
or sign-in
0
anonymous • 18 July 2014, 17:02 Show comment
Thans for the upload. however this is of extremely poor quality. seems like shot in the movie hall. Thumbs down.
0
AASRAB319 • 17 June 2014, 07:18
torrent downloaded
Show comment
audio: 7video: 8
Thanx Uploader
0
evergladezzzz164 • 14 June 2014, 06:12 Show comment
Main Tenu Samjhawan Ki - Humpty Sharma Ki Dulhania - Varun Dhawan, Alia Bhatt.mp3

https://kickass.to/main-tenu-samjhawan-ki-humpty-sharma-ki-dulhania-varun-dhawan-alia-bhatt-mp3-t9217302.html#main
0
TheLucifer1136 • 12 May 2014, 15:25
torrent downloaded
Show comment
audio: 6video: 6
good work lol
0
anonymous • 03 May 2014, 03:03 Show comment
is there subtitle in this
0
gamingman45697 • 21 April 2014, 08:36 Show comment
OKKKKKKKKAAAAAAAAAAAAAAAYYYYYYYYYYY
0
gamingman45697 • 21 April 2014, 08:35 Show comment
audio: 3video: 4
0
anonymous • 19 April 2014, 08:11 Show comment
audio: 9video: 9
Good Print thanks to up-loader....
Show More All

User Opinions

left9month10.75K, MUTE-X3002, dxamit899, poonjob896, coolboypulkit733, B.U.N438, xkbr415, deepak_gmail173, trishen222166, drogsalian29 ... And 16 more
amiaham2552, Bootstrap1373, zagaam405, KKRS280, metutu278, sharmasms201, venkyss115, saadh104, m.saaim100, Sunzil84 ... And 9 more
Report a bug