Achmed Saves America 2014 BRRip XviD MP3-RARBG

seeders: 6
leechers: 0
Added on Mar 20, 2014 by TryMeS549.82K in Movies
Torrent verified. Downloaded 1,626 times.

Summary:
Achmed is having a very bad day. As if accidentally blowing himself up until he's a talking skeleton isn't bad enough, the world's most incompetent terrorist finds himself whisked away from his homeland by a bald eagle and taken to - Americaville, USA.
Written by Pahly137.18K
report summary
Available in versions: 1080p720pHDRiPDVDRip
Achmed Saves America 2014 BRRip XviD MP3-RARBG (Size: 552.82 MB)
  Achmed.Saves.America.2014.BRRip.XviD.MP3-RARBG.avi 549.8 MB
  Achmed.Saves.America.2014.BRRip.XviD.MP3-RARBG.nfo 3.17 KB
  rarbg.com.txt 34 bytes
  Subs

Description

Achmed Saves America 2014 BRRip XviD MP3-RARBG

image

Title: Achmed Saves America (Video 2014)
Genres: Animation , Comedy
Actors: Jeff Dunham , Susan Egan , André Sogliuzzo , Amanda Troop , Chiara Zanni , Lori Alan , Jess Harnell , Tom Kenny , Stephen Stanton , Gary Anthony Williams
Runtime: 60
Year: 2014
Plot:
Achmed is having a very bad day. As if accidentally blowing himself up until he's a talking skeleton isn't bad enough| the world's most incompetent terrorist finds
himself whisked away from his homeland by a bald eagle and taken to - Americaville| USA.

Achmed.Saves.America.2014.BRRip.XviD.MP3-RARBG

http://imdb.com/title/tt3557440/

image

Info:
Format : AVI
Format/Info : Audio Video Interleave
File size : 550 MiB
Duration : 1h 1mn
Overall bit rate : 1 257 Kbps

Video
ID : 0
Format : MPEG-4 Visual
Format profile : Advanced Simple@L5
Format settings, BVOP : 1
Format settings, QPel : No
Format settings, GMC : No warppoints
Format settings, Matrix : Default (H.263)
Codec ID : XVID
Codec ID/Hint : XviD
Duration : 1h 1mn
Bit rate : 988 Kbps
Width : 720 pixels
Height : 405 pixels
Display aspect ratio : 16:9
Frame rate : 23.976 fps
Color space : YUV
Chroma subsampling : 4:2:0
Bit depth : 8 bits
Scan type : Progressive
Compression mode : Lossy
Bits/(Pixel*Frame) : 0.141
Stream size : 432 MiB (79%)
Writing library : Lavc55.52.102

Audio
ID : 1
Format : MPEG Audio
Format version : Version 1
Format profile : Layer 3
Mode : Joint stereo
Mode extension : MS Stereo
Codec ID : 55
Codec ID/Hint : MP3
Duration : 1h 1mn
Bit rate mode : Constant
Bit rate : 256 Kbps
Channel(s) : 2 channels
Sampling rate : 48.0 KHz
Compression mode : Lossy
Stream size : 112 MiB (20%)
Alignment : Aligned on interleaves
Interleave, duration : 24 ms (0.58 video frame)

Screens:
image
image
image
image


Notes:
Greetz to everyone :)

Related Torrents

torrent name size files age seed leech

Sharing Widget


Download torrent
552.82 MB
seeders:6
leechers:0
Achmed Saves America 2014 BRRip XviD MP3-RARBG

Trackers

tracker name Status checked seeders leechers downloads
udp://tracker.openbittorrent.com:80/announce
active 25 Nov 2014 4 0 10
udp://12.rarbg.me:80/announce
active 25 Nov 2014 4 0 10
udp://tracker.istole.it:80/announce
active 25 Nov 2014 4 0 10
udp://tracker.publicbt.com:80/announce
active 25 Nov 2014 6 0 10
udp://9.rarbg.com:2710/announce
active 25 Nov 2014 4 0 53
udp://9.rarbg.me:2710/announce
active 25 Nov 2014 4 0 53
udp://11.rarbg.me:80/announce
blocked 21 Mar 2014 - - -
http://tracker.trackerfix.com/announce
deleted 25 Nov 2014 - - -
udp://10.rarbg.me:80/announce
pending 25 Nov 2014 2 0 10
µTorrent compatible trackers list

Locations

name
KickassTorrents
ThePirateBay
Torrent hash: BC8BFE53C93805635C4ADAF9A8E8FA8ACCF844E4

All Comments

audio
6/10
video
4/10
please, leave only comments related to that torrent
or sign-in
0
SuperDave5136099 • 07 July 2014, 14:02
torrent downloaded
Show comment
Thank You !!!
0
gdo.do.7137 • 29 April 2014, 17:02 Show comment
tksssssssssssss
0
Cel6547 • 28 March 2014, 23:50
torrent downloaded
Show comment
audio: 1video: 1
Couldn't watch it. Audio and picture not together at all. Bad :(
0
Armyman19531180 • 26 March 2014, 14:49
torrent downloaded
Show comment
Very bad Flickering through out the whole movie.
0
Dunpeal1428 • 25 March 2014, 20:31
torrent downloaded
Show comment
audio: 10video: 10
thank you
0
skibug110 • 21 March 2014, 16:07
torrent downloaded
Show comment
audio: 8video: 1
Video jitters

User Opinions

Outcast7774378, scorppius812180, DUKERAOUL1989, tinathetiger1379, Stone66993, iceman778801, trezdk613, deflep83424, metal6666377, mustang740367 ... And 22 more
Armyman19531180, Cel6547
Report a bug