Enders Game (2013) DVDRip XviD-MAXSPEED

seeders: 437
leechers: 110
Added on Jan 28, 2014 by piratepedia713.23K in Movies
Torrent verified. Downloaded 23,699 times.

Summary:
Young Ender Wiggin is recruited by the International Military to lead the fight against the Formics, a genocidal alien race which nearly annihilated the human race in a previous invasion.
Written by MoonChild11.95K
report summary
Enders Game (2013) DVDRip XviD-MAXSPEED (Size: 1.37 GB)
  Enders Game (2013) DVDRip XviD-MAXSPEED www.torentz.3xforum.ro.avi 1.37 GB
  sample.avi 8.36 MB
  screencaps.jpeg 488.76 KB
  Enders Game (2013) DVDRip XviD-MAXSPEED.nfo 3.24 KB
  Torrent Downloaded From kickass.to.txt 50 bytes
  Torrent Downloaded From ExtraTorrent.cc.txt 39 bytes
  Torrent downloaded from Rarbg.com.txt 33 bytes
  Torrent downloaded from H33t.to.txt 31 bytes

Description

http://www.torentz.3xforum.ro/post/3356/1/Enders_Game_2013_DVDRip_XviD-MAXSPEED/

image

Screens:

image
image
image
image

ScreenCaps:

image

Enders Game (2013) DVDRip XviD-MAXSPEED
Format : AVI
Format/Info : Audio Video Interleave
File size : 1.37 GiB
Duration : 1h 53mn
Overall bit rate : 1 718 Kbps
Writing application : VirtualDubMod 1.5.10.2 (build 2542/release)
Writing library : VirtualDubMod build 2542/release
Original source form : MAX TORRENTZ
Copyright : SIGISMUNT

Video
ID : 0
Format : MPEG-4 Visual
Format profile : Advanced Simple@L5
Format settings, BVOP : 2
Format settings, QPel : No
Format settings, GMC : No warppoints
Format settings, Matrix : Default (MPEG)
Codec ID : XVID
Codec ID/Hint : XviD
Duration : 1h 53mn
Bit rate : 1 325 Kbps
Width : 720 pixels
Height : 304 pixels
Display aspect ratio : 2.35:1
Frame rate : 23.976 fps
Color space : YUV
Chroma subsampling : 4:2:0
Bit depth : 8 bits
Scan type : Progressive
Compression mode : Lossy
Bits/(Pixel*Frame) : 0.252
Stream size : 1.05 GiB (77%)
Writing library : XviD 1.2.1 (UTC 2008-12-04)

Audio
ID : 1
Format : AC-3
Format/Info : Audio Coding 3
Mode extension : CM (complete main)
Format settings, Endianness : Big
Codec ID : 2000
Duration : 1h 53mn
Bit rate mode : Constant
Bit rate : 384 Kbps
Channel(s) : 6 channels
Channel positions : Front: L C R, Side: L R, LFE
Sampling rate : 48.0 KHz
Bit depth : 16 bits
Compression mode : Lossy
Stream size : 313 MiB (22%)
Alignment : Split accross interleaves
Interleave, duration : 42 ms (1.00 video frame)
Interleave, preload duration : 500 ms

Source: WEBDL DVD (perfect a/v/sync quality,sample included)
This torrent is not seedbox supported,please seed it to the MAX

Note: If you have something to offer as early releases,seedboxes,
contact us on http://torentz.3xforum.ro or http://torentz.tk

How To Get Your MAXSPEED (uTorrent)

Torrent Client - Preferences - Bandwidth - Number of connections - Set aprox. 500 for each
Torrent Client - Preferences - BiTorrent - Protocol Encryption - Forced
Bandwidth Allocation - High (Set download/upload limit - Unlimited)
Stop Other Active Torrents - Start downloading and wait for connections.
Enjoy and Seed for at least 1:1 ratio. Don't forget to say thanks/leave reviews.
If screens/Caps image host is dead googlesearch "release name"+"screens" or "sample".
Greets to all actual/future p2p/scene QUALITY groups and affiliate websites.
Don't trust IMDb robot or bad ratings,always watch some trailers first.
Ignore stupid comments/fake/mislabeled/no-DVDrips/CAM/TS/RAR uploads.
Please spread this release/torrent to your friends/forums/etc.
If you need translation subs visit some subtitles sites.
Report if you see online streaming or other spam links.
Recommended movie player VLC PLAYER.

Sharing Widget


Download torrent
1.37 GB
seeders:437
leechers:110
Enders Game (2013) DVDRip XviD-MAXSPEED

Trackers

tracker name Status checked seeders leechers downloads
udp://tracker.coppersurfer.tk:6969/announce
active 24 Jan 2015 227 97 23699
udp://open.demonii.com:1337/announce
active 24 Jan 2015 437 110 16059
udp://tracker.istole.it:80/announce
active 20 Jan 2015 379 80 10
udp://tracker.openbittorrent.com:80/announce
active 20 Jan 2015 370 83 10
udp://tracker.publicbt.com:80/announce
active 20 Jan 2015 301 77 10
udp://pow7.com:80/announce
outdated 05 Nov 2014 - - -
http://tracker.ex.ua/announce
outdated 05 Nov 2014 - - -
udp://bt.rghost.net:80/announce
pending 20 Jan 2015 301 77 10
udp://tracker.token.ro:80/announce
pending 20 Jan 2015 301 77 10
udp://tracker.zond.org:80/announce
pending 20 Jan 2015 301 77 10
ĀµTorrent compatible trackers list

Locations

name
KickassTorrents
ThePirateBay
Torrent hash: C3CB70873409F5F69C8FC9CFE7783C591F46F301

Uploader Comments

0
skibo121982 • 28 Jan 2014, 17:43
torrent downloaded
is this another with korean subs??
9
piratepedia713.23K • 28 Jan 2014, 17:54
no it does NOT have hardcoded korean subs as other encodes, it's clean as a dvdrip

Top Comments

26
piratepedia713.23K • 28 Jan 2014, 16:05
don't get me wrong thanks for comment but how did you come to 7/7 quality rating since nobody downloaded at this time the file or sample? please leave quality reviews only if/after you checked sample or avi file not before tongue
6
djdanilo772 • 28 Jan 2014, 18:06
torrent downloaded
audio: 10video: 10
Thanks

All Comments

audio
8/10
video
9/10
please, leave only comments related to that torrent
or sign-in
0
Nightmare.8910.06K • 09 January 2015, 10:24
torrent downloaded
Show comment
audio: 9video: 9
thanks
0
anonymous • 08 January 2015, 06:30 Show comment
audio: 1video: 9
No sound at all whats up??
0
tib.z.bit2366 • 20 November 2014, 15:54
torrent downloaded
Show comment
audio: 8video: 9
thnx..!!
0
methadone4me4369 • 18 October 2014, 03:22
torrent downloaded
Show comment
audio: 8video: 8
A:8 V:8
Great movie
0
nem17221 • 11 October 2014, 12:44
torrent downloaded
Show comment
good quality. ok movie
0
Abhishek986911.58K • 20 September 2014, 16:31
torrent downloaded
Show comment
audio: 9video: 9
thanks for the share...biggrin
0
anonymous • 11 September 2014, 04:33 Show comment
audio: 1video: 10
no sound... I have background sound but no voices...
0
simha09472 • 07 August 2014, 17:23
torrent downloaded
Show comment
audio: 9video: 9
Show More All

User Opinions

HalfMelted2497, mosthated24912328, djdanilo772, dorian63772, matyk747, zenthepoet659, namwen604, Chaos18482, apollogod321, jerry242101 ... And 945 more
Outlaw693863, neotrojan1871621, cboe1477, FarshadT1012, aptenodyte16689, rocki06376, stealthblack349, Inuinu172297, camilo_ignacio_pineda_manzano39, sam706436 ... And 12 more
Report a bug