Mortal Kombat Legacy.2.2013.WEB-DL.Rip.HiMa

seeders: 12
leechers: 5
Added on Oct 11, 2013 in Movies
Downloaded 178 times.

Mortal Kombat Legacy.2.2013.WEB-DL.Rip.HiMa (Size: 698.53 MB)
  Mortal Kombat Legacy.2.2013.WEB-DL.Rip.HiMa.mkv 698.53 MB

Description

Mortal Kombat Legacy.2.2013.WEB-DL



Just HI Demux & Re.Encode For WEB Episodes , And Cut The Intro And The Outro Of Episodes
Legacy.2.2013.WEB-DL.Rip.HiMa.mkv

Format : Matroska

Format version : Version 2

File size : 699 MiB

Duration : 1h 17mn

Overall bit rate : 1 263 Kbps

Encoded date : UTC 2013-10-10 20:55:35

Writing application : mkvmerge v6.2.0 ('Promised Land') built on Apr 28 2013 12:22:01

Writing library : libebml v1.3.0 + libmatroska v1.4.0
Video

ID : 1

Format : AVC

Format/Info : Advanced Video Codec

Format profile : High@L3.1

Format settings, CABAC : Yes

Format settings, ReFrames : 4 frames

Codec ID : V_MPEG4/ISO/AVC

Duration : 1h 17mn

Bit rate : 877 Kbps

Width : 1 264 pixels

Height : 544 pixels

Display aspect ratio : 2.35:1

Frame rate : 23.976 fps

Color space : YUV

Chroma subsampling : 4:2:0

Bit depth : 8 bits

Scan type : Progressive

Bits/(Pixel*Frame) : 0.053

Stream size : 472 MiB (68%)

Writing library : x264 core


Audio

ID : 2

Format : AC-3

Format/Info : Audio Coding 3

Mode extension : CM (complete main)

Codec ID : A_AC3

Duration : 1h 17mn

Bit rate mode : Constant

Bit rate : 384 Kbps

Channel(s) : 2 channels

Channel positions : Front: L R

Sampling rate : 48.0 KHz

Bit depth : 16 bits

Compression mode : Lossy

Stream size : 212 MiB (30%)
Keep Seed

Related Torrents

torrent name size files age seed leech

Sharing Widget


Download torrent
698.53 MB
seeders:12
leechers:5
Mortal Kombat Legacy.2.2013.WEB-DL.Rip.HiMa

Trackers

tracker name Status checked seeders leechers downloads
udp://tracker.publicbt.com:80/announce
outdated 01 Jun 2014 - - -
udp://tracker.istole.it:80/announce
outdated 01 Jun 2014 - - -
udp://tracker.openbittorrent.com:80/announce
outdated 01 Jun 2014 - - -
udp://9.rarbg.com:2710/announce
outdated 01 Jun 2014 - - -
http://exodus.desync.com/announce
blocked 24 Mar 2014 - - -
udp://fr33dom.h33t.com:3310/announce
deleted 11 Oct 2013 - - -
µTorrent compatible trackers list

Locations

name
ExtraTorrent
Torrent hash: 66608AF2BD8EEEE0885E6D07AB01CD92154E560D

All Comments

audio
0/10
video
0/10
please, leave only comments related to that torrent
or sign-in
0
anonymous • 04 September 2014, 17:07 Show comment
Would be nice if someone did Season 1 like this with the BRRIPs

User Opinions

Jendeana2803, cjbbaugh1768, eioob1348, CuteStamp1309, MoBaGuNnER$MN1228, Orgath1031, ninja1972913, Masurao849, 22matt22609, Barbellz22 ... And 18 more
HotStoof691073

Latest News

--> --> --> -->
Report a bug