Planet 51(2009)BLU-RAY 1080P

seeders: 3
leechers: 2
Added on May 6, 2010 in Movies
Torrent verified. Downloaded 10 times.

Summary:
American astronaut Captain Charles "Chuck" Baker lands on Planet 51 thinking he's the first person to step foot on it. To his surprise, he finds that this planet is inhabited by little green people who are happily living in a white picket fence world, and whose only fear is that it will be overrun by alien invaders...like Chuck!
Submitted by DeadShot10124.69K
report summary
Planet 51(2009)BLU-RAY 1080P (Size: 6.56 GB)
  cbgb-planet51-1080r.mkv 6.56 GB
  Torrent_downloaded_from_Demonoid%2ecom[1].txt 47 bytes

Description

Lem is just an average teenager working on getting the girl and furthering his career at the local planetarium - except that he's an alien. At least to U.S. astronaut Captain Charles T. Baker who lands on Lem's planet hoping for a quick flag plant and a hasty return to earth and his millions of screaming fans. But on this alien planet the media has tagged spacemen as brain-eating, zombie-creating monsters, causing Baker to run for his life and into Lem's house. Now it's up to the green native to get the clumsy astronaut back to his spaceship before military dictator General Grawl and mad scientist Professor Kipple manage to exterminate the Earthly visitor.

http://www.imdb.com/title/tt0762125/
--------------------------------------------------------------------------------------------------
Video
ID : 1
Format : AVC
Format/Info : Advanced Video Codec
Format profile : High@L4.0
Format settings, CABAC : Yes
Format settings, ReFrames : 3 frames
Muxing mode : Container profile=Unknown@4.0
Codec ID : V_MPEG4/ISO/AVC
Duration : 1h 30mn
Bit rate : 8 605 Kbps
Nominal bit rate : 8 808 Kbps
Width : 1 920 pixels
Height : 816 pixels
Display aspect ratio : 2.35:1
Frame rate : 23.976 fps
Resolution : 8 bits
Colorimetry : 4:2:0
Scan type : Progressive
Bits/(Pixel*Frame) : 0.229
Stream size : 5.47 GiB (83%)
Writing library : x264 core 85 r1442 781d300
Language : English

Audio
ID : 2
Format : DTS
Format/Info : Digital Theater Systems
Codec ID : A_DTS
Duration : 1h 31mn
Bit rate mode : Constant
Bit rate : 1 510 Kbps
Channel(s) : 6 channels
Channel positions : Front: L C R, Surround: L R, LFE
Sampling rate : 48.0 KHz
Resolution : 24 bits
Stream size : 983 MiB (15%)
Language : English


Screens

http://www.postimg.com/image/15000/14209.jpg

http://www.postimg.com/image/15000/14210.jpg

http://www.postimg.com/image/15000/14208.jpg


--------------------------------------------------------------------------------------------------

Related Torrents

torrent name size files age seed leech

Sharing Widget


Download torrent
6.56 GB
seeders:3
leechers:2
Planet 51(2009)BLU-RAY 1080P

Trackers

tracker name Status checked seeders leechers downloads
udp://tracker.openbittorrent.com:80/announce
active 06 Oct 2014 0 2 10
udp://tracker.publicbt.com:80/announce
active 06 Oct 2014 3 0 10
udp://inferno.demonoid.com:3394/announce
outdated 27 Sep 2013 - - -
http://tracker.openbittorrent.com/announce
outdated 27 Sep 2013 - - -
http://tracker.publicbt.com/announce
deleted 27 Sep 2013 - - -
http://inferno.demonoid.com:3394/announce
error 06 May 2010 - - -
ĀµTorrent compatible trackers list

Locations

name
ThePirateBay
Torrent hash: 44c88b74b39150c117b31efa60c1b3f3d63f3418

All Comments

audio
9/10
video
9/10
please, leave only comments related to that torrent
or sign-in
0
kate.orchid26.3K • 21 January 2014, 10:19
torrent downloaded
Show comment
audio: 10video: 10
0
Ashu_0077641 • 02 December 2013, 20:20
torrent downloaded
Show comment
audio: 9video: 9
0
Dirley977 • 29 October 2013, 17:38
torrent downloaded
Show comment
audio: 10video: 10
BEATIFUL ANIMATION.
0
aahoo13851150 • 23 August 2013, 13:02
torrent downloaded
Show comment
audio: 10video: 10
Thanks for sharing.
0
mikeshot1170 • 15 June 2013, 15:13
torrent downloaded
Show comment
audio: 6video: 6
good
0
anonymous • 29 December 2012, 20:50 Show comment
does it work on xbox
0
anonymous • 29 December 2012, 20:50 Show comment
yep
0
anonymous • 06 December 2012, 18:52 Show comment
audio: 10video: 10
0
anonymous • 29 December 2012, 20:51 Show comment
thanks good for telling me
0
anonymous • 17 March 2012, 22:28 Show comment
audio: 10video: 10
GREAT
0
pzlive2381 • 13 February 2011, 04:30
torrent downloaded
Show comment
audio: 9video: 9
Show More

User Opinions

pzlive2381, Dirley977, AudibleSilence416, sidefirebird30274, hardal231, ChuckyB187, brooksy501145, idontkno121, panamashotta91, zooyork3787154 ... And 44 more

Latest News

--> --> --> -->
Report a bug