Six Nations 2014 Rugby Union-England v Ireland-2014 02 22 720p

seeders: 2
leechers: 0
Added on Feb 23, 2014 in TV
Torrent verified. Downloaded once.

Six Nations 2014 Rugby Union-England v Ireland-2014 02 22 720p (Size: 2.62 GB)
  2014.02.22.6N.England.v.Ireland.720p.x264.mp4 2.62 GB
  2014.02.22.6N.England.v.Ireland.720p.x264.nfo 3.33 KB

Description

Six.Nations.2014.Rugby.Union-England.v.Ireland-2014.02.22.720p.x264

SPORT: Six Nations Rugby Union - England v Ireland.
On: BBC 1 HD
Date: Saturday 22nd February 2014
Time: 15:30 to 17:55

John Inverdale introduces live coverage of the clash between England and Ireland on the third weekend of the Six Nations championship, with studio analysis from Sir Clive Woodward, Jeremy Guscott and Keith Wood plus commentary by Eddie Butler, Brian Moore and Philip Matthews. England ground out a 12-6 win on a tricky day for rugby in Dublin last season, and the Red Rose also emerged victorious during their last Six Nations meeting at Twickenham, a 30-9 win in March 2012. With a home World Cup on the horizon next year England have spoken of wanting to make Twickenham a fortress, but legendary Irish centre Brian O'Driscoll will no doubt have other ideas. If he plays in Ireland's opening two fixtures, O'Driscoll will equal Australian legend George Gregan's world record of 139 Test appearances at Twickenham in what is his final season as a professional.

Full coverage.

General
Complete name : 2014.02.22.6N.England.v.Ireland.720p.x264.mp4
Format : MPEG-4
Format profile : Base Media
Codec ID : isom
File size : 2.62 GiB
Duration : 2h 23mn
Overall bit rate : 2 614 Kbps
Writing application : X264-2358-CLI

Video
ID : 1
Format : AVC
Format/Info : Advanced Video Codec
Format profile : High@L3.1
Format settings, CABAC : Yes
Format settings, ReFrames : 4 frames
Codec ID : avc1
Codec ID/Info : Advanced Video Coding
Duration : 2h 23mn
Bit rate : 2 480 Kbps
Width : 1 280 pixels
Height : 720 pixels
Display aspect ratio : 16:9
Frame rate mode : Constant
Frame rate : 25.000 fps
Color space : YUV
Chroma subsampling : 4:2:0
Bit depth : 8 bits
Scan type : Progressive
Bits/(Pixel*Frame) : 0.108
Stream size : 2.49 GiB (95%)

Audio
ID : 2
Format : AAC
Format/Info : Advanced Audio Codec
Format profile : LC
Codec ID : 40
Duration : 2h 23mn
Duration_LastFrame : -21ms
Bit rate mode : Constant
Bit rate : 128 Kbps
Channel(s) : 2 channels
Channel positions : Front: L R
Sampling rate : 48.0 KHz
Compression mode : Lossy
Stream size : 131 MiB (5%)
Language : English

Related Torrents

torrent name size files age seed leech

Sharing Widget


Download torrent
2.62 GB
seeders:2
leechers:0
Six Nations 2014 Rugby Union-England v Ireland-2014 02 22 720p

Trackers

tracker name Status checked seeders leechers downloads
http://announce.torrentsmd.com:8080/announce
outdated 23 Feb 2014 - - -
http://announce.torrentsmd.com:6969/announce
outdated 23 Feb 2014 - - -
udp://tracker.openbittorrent.com:80/announce
outdated 23 Feb 2014 - - -
http://announce.torrentsmd.com:8080/announce.php
private 23 Feb 2014 - - -
udp://tracker.istole.it:80/announce
outdated 23 Feb 2014 - - -
udp://tracker.publicbt.com:80/announce
outdated 23 Feb 2014 - - -
http://shadowshq.yi.org:6969/announce
error 23 Feb 2014 - - -
http://leopard.raws.ws:6969/announce
pending 23 Feb 2014 0 0 0
µTorrent compatible trackers list

Locations

name
ThePirateBay
Torrent hash: AB39F4320C7C2D643685E9E5B1F4DAD6B8FD0524

All Comments

audio
0/10
video
0/10
please, leave only comments related to that torrent
or sign-in

User Opinions

makdub223

Latest News

--> --> -->

Latest Searches

-->
Report a bug