The Ring 2 in HINDI

seeders: 0
leechers: 0
Added on Jan 24, 2010 in Movies
Downloaded 10 times.

The Ring 2 in HINDI (Size: 982.62 MB)
  1.dat 555.41 MB
  2.mpg 427.21 MB

Description

Write your comments on quality of this movie.

General
Format : CDXA/MPEG-PS
File size : 535 MiB
Duration : 53mn 0s
Overall bit rate : 1 412 Kbps

Video
ID : 224 (0xE0)
Format : MPEG Video
Format version : Version 1
Format settings, BVOP : Yes
Format settings, Matrix : Default
Duration : 53mn 0s
Bit rate mode : Constant
Bit rate : 1 132 Kbps
Nominal bit rate : 1 120 Kbps
Width : 352 pixels
Height : 288 pixels
Display aspect ratio : 4:3
Frame rate : 25.000 fps
Resolution : 8 bits
Scan type : Progressive
Bits/(Pixel*Frame) : 0.447
Stream size : 429 MiB (80%)

Audio
ID : 192 (0xC0)
Format : MPEG Audio
Format version : Version 1
Format profile : Layer 2
Duration : 53mn 0s
Bit rate mode : Constant
Bit rate : 224 Kbps
Channel(s) : 2 channels
Sampling rate : 44.1 KHz
Video delay : -80ms
Stream size : 84.9 MiB (16%)
General
Format : MPEG-PS
File size : 427 MiB
Duration : 43mn 51s
Overall bit rate : 1 362 Kbps

Video
ID : 224 (0xE0)
Format : MPEG Video
Format version : Version 1
Format settings, BVOP : Yes
Format settings, Matrix : Default
Duration : 43mn 51s
Bit rate mode : Constant
Bit rate : 1 084 Kbps
Nominal bit rate : 1 120 Kbps
Width : 352 pixels
Height : 288 pixels
Display aspect ratio : 4:3
Frame rate : 25.000 fps
Resolution : 8 bits
Scan type : Progressive
Bits/(Pixel*Frame) : 0.428
Stream size : 340 MiB (80%)

Audio
ID : 192 (0xC0)
Format : MPEG Audio
Format version : Version 1
Format profile : Layer 2
Duration : 43mn 50s
Bit rate mode : Constant
Bit rate : 224 Kbps
Channel(s) : 2 channels
Sampling rate : 44.1 KHz
Stream size : 70.2 MiB (16%)
Please seed guys i will not reseed.Torrent uploaded by ASHISH THE GREAT.

Other uploaded torrents by me

1.http://thepiratebay.org/torrent/4988511/Death_of_Hinduism(Should_read_by_every_HINDU)

2.http://thepiratebay.org/torrent/4888474/The_Incredibles_in_HINDI_(Hum_hain_lajawab)

3.http://thepiratebay.org/torrent/4886918/Transformers_in_HINDI

4.http://thepiratebay.org/torrent/5050749/300_in_Hindi

5.http://thepiratebay.org/torrent/5159007/The_Ring_in_HINDIEnjoy bhai bandhuo

Related Torrents

torrent name size files age seed leech

Sharing Widget


Download torrent
982.62 MB
seeders:0
leechers:0
The Ring 2 in HINDI

Trackers

tracker name Status checked seeders leechers downloads
udp://tracker.publicbt.com:80/announce
active 29 Jun 2014 0 0 10
udp://tracker.openbittorrent.com:80/announce
active 29 Jun 2014 0 0 10
udp://open.demonii.com:1337/announce
active 29 Jun 2014 0 0 2
udp://tracker.istole.it:80/announce
active 29 Jun 2014 0 0 10
udp://tracker.ccc.de:80/announce
deleted 29 Jun 2014 - - -
µTorrent compatible trackers list

Locations

name
ThePirateBay
TorrentPortal
ExtraTorrent
Torrent hash: a033d40d6b85486c064bc9da62318ba1832fed3d

All Comments

audio
10/10
video
10/10
please, leave only comments related to that torrent
or sign-in
0
anonymous • 08 November 2012, 14:14 Show comment
hum na koni dakhi
0
anonymous • 04 August 2012, 20:47 Show comment
seed pls...
0
anonymous • 01 June 2011, 07:29 Show comment
audio: 10video: 10
a-10,v-10
0
anonymous • 22 January 2011, 09:52 Show comment
please seed
0
anonymous • 21 January 2011, 15:25 Show comment
audio: 10video: 10
GOOD!

User Opinions

Latest News

--> --> -->

Latest Searches

-->
Report a bug